Сергей Берег 1998 - В сторону рая (Flac)

Модераторы: Moderator, Агдам, Doctr

Re: Сергей Берег 1998 - В сторону рая (Flac)

Сообщение aliosha333 » 07 янв 2017, 23:39

Trable писал(а) в форуме Re: Сергей Берег 1998 - В сторону рая (Flac):Где я CUE то возьму


Да порезать-то готовый файл - это не пестни петь! :-D
И сами смогём
Вагончик катится. И не страшны нам наивные партизаны, верящие в динамит из ваты!(Лёва Камский)
Без булдырабыз (Мы можем!)
Аватара пользователя
aliosha333
В законе
 
Сообщения: 21058
Зарегистрирован: 28 июн 2007, 21:29
Откуда: Из прошлого
Благодарил (а): 4917 раз.
Поблагодарили: 3684 раз.
Баллы репутации: 2104

Re: Сергей Берег 1998 - В сторону рая (Flac)

Сообщение aliosha333 » 07 янв 2017, 23:59

kurort писал(а) в форуме Re: Сергей Берег 1998 - В сторону рая (Flac):Trable,если можно 24 +.cue


Олег посмотри спектр у flac и wav . Разница есть? АТРАС - это же сжатка. Почитай о формате в сети. И к Lossless его относить можно весьма условно.
Я потому и спросил с чего звук...
Самое главное, что мне звук понравился. Только в ушах слушал, правда. Через колонки только завтра в студии смогу послушать. Или послезавтра. :-D
Праздники. Не до студии, однако.

Trable с Праздниками. И большое спасибо, что не поленился и в теме написал. Многим всё похеру... А ведь время идёт и мы понемногу уходим. Остаются дети интернета и левой кокаколы. У них в приоритете айфон и доширак............ :-D :-D :-D Что едят, то и слушают. :-D
Изображение
Вагончик катится. И не страшны нам наивные партизаны, верящие в динамит из ваты!(Лёва Камский)
Без булдырабыз (Мы можем!)
Аватара пользователя
aliosha333
В законе
 
Сообщения: 21058
Зарегистрирован: 28 июн 2007, 21:29
Откуда: Из прошлого
Благодарил (а): 4917 раз.
Поблагодарили: 3684 раз.
Баллы репутации: 2104

Re: Сергей Берег 1998 - В сторону рая (Flac)

Сообщение Trable » 08 янв 2017, 00:12

Тут скорее так! Поскольку это ОРИГИНАЛ (а в то время фактически все писалось с минидисков, мы же были тиражной студией) - именно с него писались все тиражи кассет альбома, то вполне можно считать его эталоном и не сильно придираться по категории lossless. Лично я никакого цифрового шума присущего mp3 даже в самом высоком битрейте не слышу. Как ни старался. Звучит как компакт-диск полноценный.

За это сообщение автора Trable поблагодарил:
aliosha333
Рейтинг: 3.23%
 
Trable
Прапорщик
 
Сообщения: 24
Зарегистрирован: 22 дек 2009, 19:02
Благодарил (а): 2 раз.
Поблагодарили: 17 раз.
Баллы репутации: 90

Re: Сергей Берег 1998 - В сторону рая (Flac)

Сообщение aliosha333 » 08 янв 2017, 09:15

kurort писал(а) в форуме Re: Сергей Берег 1998 - В сторону рая (Flac): 24 +.cue



п»їTITLE ""
FILE "Сергей Берег - В сторону Рая.wav" WAVE
TRACK 01 AUDIO
TITLE "1. Ленок"
INDEX 01 00:00:00
TRACK 02 AUDIO
TITLE "2. Девки любят хулиганов"
INDEX 01 03:42:37
TRACK 03 AUDIO
TITLE "3. Натали"
INDEX 01 07:40:26
TRACK 04 AUDIO
TITLE "4. В сторону Рая"
INDEX 01 12:38:59
TRACK 05 AUDIO
TITLE "5. На свадьбе"
INDEX 01 17:02:53
TRACK 06 AUDIO
TITLE "6. Жизнь моя"
INDEX 01 22:00:01
TRACK 07 AUDIO
TITLE "7. Старый двор"
INDEX 01 27:20:56
TRACK 08 AUDIO
TITLE "8. Голливуд"
INDEX 01 32:26:48
TRACK 09 AUDIO
TITLE "9. Мама"
INDEX 01 36:52:30
TRACK 10 AUDIO
TITLE "10. Катенька"
INDEX 01 40:39:57
TRACK 11 AUDIO
TITLE "Bonus. Bonus. В сторону Рая (long)"
INDEX 01 43:01:70

Вавку можно переименовать.
Сергей Берег - В сторону Рая

С тегами не стал заморачиваться. Хотя , думаю ни к чему эта вавка. Лучше звук от этого не станет
И треки флаковские уже порезаны в релизе.
Вагончик катится. И не страшны нам наивные партизаны, верящие в динамит из ваты!(Лёва Камский)
Без булдырабыз (Мы можем!)

За это сообщение автора aliosha333 поблагодарил:
kurort
Рейтинг: 3.23%
 
Аватара пользователя
aliosha333
В законе
 
Сообщения: 21058
Зарегистрирован: 28 июн 2007, 21:29
Откуда: Из прошлого
Благодарил (а): 4917 раз.
Поблагодарили: 3684 раз.
Баллы репутации: 2104

Re: Сергей Берег 1998 - В сторону рая (Flac)

Сообщение kurort » 08 янв 2017, 12:02

aliosha333 писал(а) в форуме Re: Сергей Берег 1998 - В сторону рая (Flac):Вавку можно переименовать.
Сергей Берег - В сторону Рая


Вот.Алексей сделал доброе дело!!!Теперь весь первый квартал 2017 года ему будет фартить!!!Надо чаще делать добрые дела,особенно на Рождество!!!
Добрым словом и пистолетом вы можете добиться гораздо большего,чем одним только добрым словом.
Аватара пользователя
kurort
В законе
 
Сообщения: 2915
Зарегистрирован: 06 сен 2010, 13:03
Откуда: Сочи
Благодарил (а): 238 раз.
Поблагодарили: 306 раз.
Баллы репутации: 155

Re: Сергей Берег 1998 - В сторону рая (Flac)

Сообщение aliosha333 » 08 янв 2017, 12:29

kurort писал(а) в форуме Re: Сергей Берег 1998 - В сторону рая (Flac):Вот.Алексей сделал доброе дело!!!


Я знаю про Рождество. До конца дня осталось совсем ничего. Продержусь как нибудь. А потом наверстаю. В смысле недоброго дела. :-D
А куй делать я пользуюсь вот ентой программулькой
Изображение


Всё просто. Можно конечно заморочиться , и теги прописать, но мне ни к чему
Вагончик катится. И не страшны нам наивные партизаны, верящие в динамит из ваты!(Лёва Камский)
Без булдырабыз (Мы можем!)
Аватара пользователя
aliosha333
В законе
 
Сообщения: 21058
Зарегистрирован: 28 июн 2007, 21:29
Откуда: Из прошлого
Благодарил (а): 4917 раз.
Поблагодарили: 3684 раз.
Баллы репутации: 2104

Re: Сергей Берег 1998 - В сторону рая (Flac)

Сообщение kurort » 08 янв 2017, 15:04

Ну ты прям на глазах становишься положительным со всех сторон. :-D Сейчас качну прогу.(Это пол-доброго дела,т.к.без ссылки и таблетки. :-D )
Добрым словом и пистолетом вы можете добиться гораздо большего,чем одним только добрым словом.
Аватара пользователя
kurort
В законе
 
Сообщения: 2915
Зарегистрирован: 06 сен 2010, 13:03
Откуда: Сочи
Благодарил (а): 238 раз.
Поблагодарили: 306 раз.
Баллы репутации: 155

Re: Сергей Берег 1998 - В сторону рая (Flac)

Сообщение aliosha333 » 08 янв 2017, 16:15

CD Wave Editor Portable.rar
http://www83.zippyshare.com/v/HFiZOE27/file.html
из моей портабл сборки. Может где есть на русском. Это не по нашему, но итак всё понятно. Ей и резать на трпеки зашибись.

описание
https://rutracker.org/forum/viewtopic.php?t=3371079
Вагончик катится. И не страшны нам наивные партизаны, верящие в динамит из ваты!(Лёва Камский)
Без булдырабыз (Мы можем!)
Аватара пользователя
aliosha333
В законе
 
Сообщения: 21058
Зарегистрирован: 28 июн 2007, 21:29
Откуда: Из прошлого
Благодарил (а): 4917 раз.
Поблагодарили: 3684 раз.
Баллы репутации: 2104

Re: Сергей Берег 1998 - В сторону рая (Flac)

Сообщение kurort » 17 янв 2017, 17:02

aliosha333 писал(а) в форуме Re: Сергей Берег 1998 - В сторону рая (Flac):CD Wave Editor Portable.rar


Работает!И на автомате и руками. :) Тебе фарт-то пошёл? :) Завтра Крещение!!!
Добрым словом и пистолетом вы можете добиться гораздо большего,чем одним только добрым словом.
Аватара пользователя
kurort
В законе
 
Сообщения: 2915
Зарегистрирован: 06 сен 2010, 13:03
Откуда: Сочи
Благодарил (а): 238 раз.
Поблагодарили: 306 раз.
Баллы репутации: 155

Re: Сергей Берег 1998 - В сторону рая (Flac)

Сообщение Ratnik » 13 авг 2017, 19:28

Как мне нравиться,то что мои сообщения,уходят,в пыль...
Вернее отходят другим пользователям...

Ну есть ответы,и то,Хорошо!
Судьба - словно лодка без вёсел, не знаешь куда повернет... (Валерьян)
Ratnik
В законе
 
Сообщения: 2496
Зарегистрирован: 09 фев 2010, 01:17
Откуда: Республика Беларусь
Благодарил (а): 983 раз.
Поблагодарили: 280 раз.
Баллы репутации: 801

Пред.След.

  • Похожие темы
    Ответы
    Просмотры
    Последнее сообщение

Вернуться в Русский шансон в формате lossless, FLAC и др.

Кто сейчас на конференции

Сейчас этот форум просматривают: нет зарегистрированных пользователей и гости: 2